40 Days And Nights 2012 DVDRip English [SOURAVFILE]

seeders: 3
leechers: 2
Added on Nov 25, 2012 by dead_112.88K in Movies
Downloaded 10 times.

Summary:
No summary yet
Available in versions: 1080p720pHDRiPDVDDVDRipx264
40 Days And Nights 2012 DVDRip English [SOURAVFILE] (Size: 682.93 MB)
  40 Days And Nights 2012 DVDRip English [SOURAVFILE].mkv 682.93 MB
  Torrent Downloaded from digtorrent.org.txt 346 bytes
  Torrent downloaded from souravfile torrents on BTScene.eu.txt 69 bytes

Description

image
Cover:
image
Release info:
General
Format : Matroska
Format version : Version 2
File size : 683 MiB
Duration : 1h 26mn
Overall bit rate : 1 109 Kbps


Video
ID : 1
Format : MPEG-4 Visual
Format profile : Advanced Simple@L5
Format settings, BVOP : Yes
Format settings, QPel : No
Format settings, GMC : No warppoints
Format settings, Matrix : Default (H.263)
Codec ID : V_MS/VFW/FOURCC / XVID
Codec ID/Hint : XviD
Duration : 1h 26mn
Bit rate : 959 Kbps
Width : 640 pixels
Height : 352 pixels
Display aspect ratio : 16:9
Frame rate mode : Constant
Frame rate : 23.976 fps
Color space : YUV
Chroma subsampling : 4:2:0
Bit depth : 8 bits
Scan type : Progressive
Compression mode : Lossy
Bits/(Pixel*Frame) : 0.177
Stream size : 591 MiB (86%)
Language : English
Default : Yes
Forced : No

Audio
ID : 2
Format : MPEG Audio
Format version : Version 1
Format profile : Layer 3
Mode : Joint stereo
Mode extension : MS Stereo
Muxing mode : Header stripping
Codec ID : A_MPEG/L3
Codec ID/Hint : MP3
Duration : 1h 26mn
Bit rate mode : Constant
Bit rate : 128 Kbps
Channel(s) : 2 channels
Sampling rate : 44.1 KHz
Compression mode : Lossy
Stream size : 78.8 MiB (12%)
Writing library : LAME3.98.2
Language : English
Default : Yes
Forced : No

Source:
credit to original movie ripper MARGiN (Thanks)

IMDB Info:
When a colossal tectonic shift causes the sea level to start rising, a microbiologist gathers the DNA of as many species as she can, while the military creates an "ark" in a desperate attempt to preserve life on Earth.

Director: Peter Geiger
Writer: H. Perry Horton
Stars: Alex Carter, Christianna Carmine and Emily Sandifer

Genres: Action


http://www.imdb.com/title/tt2439946/
Screen Shot:
image
image
image
image
image
image
image
image

Sharing Widget


Download torrent
682.93 MB
seeders:3
leechers:2
40 Days And Nights 2012 DVDRip English [SOURAVFILE]

Trackers

tracker name Status checked seeders leechers downloads
udp://9.rarbg.com:2710/announce
outdated 25 Apr 2014 - - -
udp://tracker.publicbt.com:80/announce
outdated 25 Apr 2014 - - -
udp://tracker.openbittorrent.com:80/announce
outdated 25 Apr 2014 - - -
udp://tracker.istole.it:80/announce
outdated 25 Apr 2014 - - -
http://tracker.ex.ua/announce
outdated 25 Apr 2014 - - -
http://exodus.desync.com:6969/announce
blocked 13 Aug 2013 - - -
udp://fr33domtracker.h33t.com:3310/announce
deleted 13 Aug 2013 - - -
http://fr33dom.h33t.com:3310/announce
deleted 13 Aug 2013 - - -
http://torrentuniverse.in/announce.php
pending 13 Aug 2013 0 0 0
ĀµTorrent compatible trackers list

Locations

name
KickassTorrents
Torrent hash: 9D6CE27EF3CA68D65BC6C21F92E47F09AA555920








All Comments

audio
9/10
video
9/10
please, leave only comments related to that torrent
or sign-in
0
alemos239 • 07 December 2012, 21:14
torrent downloaded
Show comment
audio: 8video: 8
1
n_tetra55 • 29 November 2012, 09:25
torrent downloaded
Show comment
Boring movie.
1
ash3215216 • 28 November 2012, 08:52
torrent downloaded
Show comment
audio: 9video: 9
excellent thanks
1
fortunateson1251 • 27 November 2012, 17:22
torrent downloaded
Show comment
reliable quality as always man!! Thx again for the effort!
1
anonymous • 27 November 2012, 12:24 Show comment
audio: 9video: 9
Terrible Film, but thanks for sharing... Quality good but awful awful movie to watch, i wished the wave had swallowed me up!
1
maximalla20.18K • 27 November 2012, 07:53
torrent downloaded
Show comment
audio: 9video: 10
thank you for sharing
1
ManyWurlds56.18K • 27 November 2012, 04:57
torrent downloaded
Show comment
audio: 9video: 9
Thumbs Up!
1
zeke23178.35K • 26 November 2012, 10:21
torrent downloaded
Show comment
audio: 10video: 10
excellent,thanx
1
BOOMCHUCK2238 • 26 November 2012, 01:28
torrent downloaded
Show comment
audio: 10video: 10
Appreciate Excellent job "ettv" Thank you! Fast Downloads, Prefect keep eem coming smile

User Opinions

ManyWurlds56.18K, maximalla20.18K, 48chev6407, cass16061773, fortunateson1251, alemos239, alexander3395, foundme68, ivecostralis43, ush121a23 ... And 9 more
n_tetra55, ilhangulser27
Report a bug