300.Eroii de la Termopile. (2006).BRRip.720p By AltriX

seeders: 1
leechers: 0
Added on Feb 20, 2012 by altrixforce21 in Movies > Highres Movies
Downloaded 0 times.

  • add 300 to bookmarks
  • Release date: 09 December 2006
  • Language: English
  • Subtitles: English, Italian, German, French, Arabic, Dutch, Polish, Spanish (Spain), Portuguese, Romanian, Norwegian, Swedish, Hebrew, Danish, Hungarian, Serbian, Turkish, Greek, Finnish, Czech, Croatian, Slovenian
Summary:
King Leonidas and a force of 300 men fight the Persians at Thermopylae in 480 B.C.
Submitted by DeadShot10127.61K
report summary
300.Eroii de la Termopile. (2006).BRRip.720p By AltriX (Size: 2.19 GB)
  300,Eroii de la Termopile (2006)
  Subtitle,Sample,info
  300,Eroii de la Termopile (2006).mp4 2.18 GB
  300,Eroii de la Termopile (2006).srt 76.1 KB

Description

300.Eroii de la Termopile. (2006).BRRip.720p By AltriX
__________________________________________
http://www.imdb.com/title/tt0416449/

Va rog Sa-mi spuneti daca merge acest torrent bine.:)



Format : MPEG-4
Format profile : Base Media
Codec ID : isom
File size : 2.18 GiB
Duration : 1h 56mn
Overall bit rate mode : Variable
Overall bit rate : 2 678 Kbps
Encoded date : UTC 2011-08-17 12:05:58
Tagged date : UTC 2011-08-17 12:05:58
Video
ID : 1
Format : AVC
Format/Info : Advanced Video Codec
Format profile : High@L4.1
Format settings, CABAC : Yes
Format settings, ReFrames : 8 frames
Codec ID : avc1
Codec ID/Info : Advanced Video Coding
Duration : 1h 56mn
Bit rate : 2 292 Kbps
Maximum bit rate : 20.1 Mbps
Width : 1 280 pixels
Height : 528 pixels
Display aspect ratio : 2.40:1
Frame rate mode : Constant
Frame rate : 23.976 fps
Color space : YUV
Chroma subsampling : 4:2:0
Bit depth : 8 bits
Scan type : Progressive
Bits/(Pixel*Frame) : 0.141
Stream size : 1.87 GiB (86%)
Title : 300 By 3Li
Writing library : x264 core 115 r1995 c1e60b9
Encoding settings : cabac=1 / ref=8 / deblock=1:-3:-3 / analyse=0x3:0x113 / me=umh / subme=9 / psy=1 / psy_rd=0.80:0.00 / mixed_ref=1 / me_range=32 / chroma_me=1 / trellis=1 / 8x8dct=1 / cqm=0 / deadzone=21,11 / fast_pskip=0 / chroma_qp_offset=-2 / threads=3 / sliced_threads=0 / nr=0 / decimate=0 / interlaced=0 / bluray_compat=0 / constrained_intra=0 / bframes=6 / b_pyramid=2 / b_adapt=2 / b_bias=0 / direct=1 / weightb=1 / open_gop=0 / weightp=2 / keyint=250 / keyint_min=23 / scenecut=40 / intra_refresh=0 / rc_lookahead=40 / rc=2pass / mbtree=1 / bitrate=2292 / ratetol=1.0 / qcomp=0.60 / qpmin=10 / qpmax=51 / qpstep=4 / cplxblur=20.0 / qblur=0.5 / ip_ratio=1.40 / aq=1:1.00
Encoded date : UTC 2011-08-17 12:05:58
Tagged date : UTC 2011-08-17 12:07:20
Audio
ID : 2
Format : AAC
Format/Info : Advanced Audio Codec
Format profile : LC
Codec ID : 40
Duration : 1h 56mn
Bit rate mode : Variable
Bit rate : 384 Kbps
Maximum bit rate : 396 Kbps
Channel(s) : 6 channels
Channel positions : Front: L C R, Side: L R, LFE
Sampling rate : 48.0 KHz
Compression mode : Lossy
Stream size : 320 MiB (14%)
Title : 300
Language : English

Sharing Widget


Download torrent
2.19 GB
seeders:1
leechers:0
300.Eroii de la Termopile. (2006).BRRip.720p By AltriX

Trackers

tracker name Status checked seeders leechers downloads
http://tracker.bittorrent.am/announce
outdated 21 Jan 2013 - - -
http://genesis.1337x.org:1337/announce
outdated 20 Feb 2012 - - -
http://tracker.openbittorrent.com/announce
outdated 20 Feb 2012 - - -
udp://tracker.openbittorrent.com:80/announce
outdated 20 Feb 2012 - - -
udp://tracker.publicbt.com:80/announce
outdated 20 Feb 2012 - - -
http://tracker.publicbt.com/announce
deleted 11 Mar 2013 - - -
ĀµTorrent compatible trackers list

Locations

name
KickassTorrents
Torrent hash: C9DE3004F7489FFB196F6BEE2D877669D8C38EAF

All Comments

audio
0/10
video
0/10
please, leave only comments related to that torrent
or sign-in

User Opinions

Report a bug