2 Guns (2013) DVDRip XviD-MAXSPEED

seeders: 295
leechers: 45
Added on Nov 5, 2013 by piratepedia691.94K in Movies
Torrent verified. Downloaded 151,018 times.

Summary:
A DEA agent and a naval intelligence officer find themselves on the run after a botched attempt to infiltrate a drug cartel. While fleeing, they learn the secret of their shaky alliance: Neither knew that the other was an undercover agent.
Submitted by DeadShot10124.98K
report summary
2 Guns (2013) DVDRip XviD-MAXSPEED (Size: 1.57 GB)
  2 Guns (2013) DVDRip XviD-MAXSPEED www.torentz.3xforum.ro.avi 1.56 GB
  sample.avi 11.29 MB
  screencaps.jpeg 581.5 KB
  2 Guns (2013) DVDRip XviD-MAXSPEED.nfo 3.33 KB
  Torrent Downloaded From kickass.to.txt 50 bytes
  Torrent Downloaded From ExtraTorrent.cc.txt 39 bytes
  Torrent downloaded from Rarbg.com.txt 33 bytes

Description

http://www.torentz.3xforum.ro/post/3267/1/2_Guns_2013_DVDRip_XviD-MAXSPEED/

image

Screens:

image
image
image
image

ScreenCaps:

image

2 Guns (2013) DVDRip XviD-MAXSPEED
Format : AVI
Format/Info : Audio Video Interleave
Format profile : OpenDML
Format settings : rec
File size : 1.56 GiB
Duration : 1h 49mn
Overall bit rate : 2 042 Kbps
Writing application : VirtualDubMod 1.5.10.2 (build 2542/release)
Writing library : VirtualDubMod build 2542/release
Original source form : MAX TORRENTZ
Copyright : SIGISMUNT

Video
ID : 0
Format : MPEG-4 Visual
Format profile : Advanced Simple@L5
Format settings, BVOP : 1
Format settings, QPel : No
Format settings, GMC : No warppoints
Format settings, Matrix : Custom
Codec ID : XVID
Codec ID/Hint : XviD
Duration : 1h 49mn
Bit rate : 1 653 Kbps
Width : 720 pixels
Height : 304 pixels
Display aspect ratio : 2.35:1
Frame rate : 23.976 fps
Color space : YUV
Chroma subsampling : 4:2:0
Bit depth : 8 bits
Scan type : Progressive
Compression mode : Lossy
Bits/(Pixel*Frame) : 0.315
Stream size : 1.26 GiB (81%)
Writing library : XviD 1.2.1 (UTC 2008-12-04)

Audio
ID : 1
Format : AC-3
Format/Info : Audio Coding 3
Mode extension : CM (complete main)
Format settings, Endianness : Big
Codec ID : 2000
Duration : 1h 49mn
Bit rate mode : Constant
Bit rate : 384 Kbps
Channel(s) : 6 channels
Channel positions : Front: L C R, Side: L R, LFE
Sampling rate : 48.0 KHz
Bit depth : 16 bits
Compression mode : Lossy
Stream size : 300 MiB (19%)
Alignment : Aligned on interleaves
Interleave, duration : 64 ms (1.53 video frames)
Interleave, preload duration : 192 ms

Source: WEBDL DVD (perfect a/v/sync quality,sample included)
This torrent is not seedbox supported,please seed it to the MAX

Note:If you have something to offer as early releases,seedboxes,
links,accounts,etc please contact us on torentz 3xforum ro

How To Get Your MAXSPEED (uTorrent)

Torrent Client - Preferences - Bandwidth - Number of connections - Set aprox. 500 for each
Torrent Client - Preferences - BiTorrent - Protocol Encryption - Forced
Bandwidth Allocation - High (Set download/upload limit - Unlimited)
Stop Other Active Torrents - Start downloading and wait for connections.
Enjoy and Seed for at least 1:1 ratio. Don't forget to say thanks/leave reviews.
If screens/Caps image host is dead google search "release name""screens" or "sample".
Greets to all actual/future p2p/scene QUALITY groups and affiliate websites.
Don't trust IMDb robot or bad ratings,always watch some trailers first.
Ignore stupid comments/fake/mislabeled/no-DVDrips/CAM/TS/RAR uploads.
Please spread this release/torrent to your friends/forums/etc.
If you need translation subs visit some subtitles sites.
Report if you see online streaming or other spam links.
Recommended movie player VLC PLAYER.

Related Torrents

torrent name size files age seed leech

Sharing Widget


Download torrent
1.57 GB
seeders:295
leechers:45
2 Guns (2013) DVDRip XviD-MAXSPEED

Trackers

tracker name Status checked seeders leechers downloads
udp://tracker.publicbt.com:80/announce
active 14 Oct 2014 252 42 10
udp://tracker.istole.it:80/announce
active 14 Oct 2014 295 45 10
udp://9.rarbg.com:2710/announce
active 14 Oct 2014 134 37 151018
udp://open.demonii.com:1337/announce
active 14 Oct 2014 292 43 236
udp://tracker.openbittorrent.com:80/announce
active 14 Oct 2014 198 25 10
udp://tracker.seedceo.com:2710/announce
blocked 08 Nov 2013 - - -
http://tracker.coppersurfer.tk:6969/announce
deleted 23 Feb 2014 - - -
udp://bt.rghost.net:80/announce
pending 14 Oct 2014 249 39 10
udp://tracker.zond.org:80/announce
pending 14 Oct 2014 248 39 10
udp://tracker.token.ro:80/announce
pending 14 Oct 2014 248 39 10
ĀµTorrent compatible trackers list

Locations

name
KickassTorrents
Torrent hash: B943B5102DF02E9A4653BA8C4BB6D1A8D07D17AF

All Comments

audio
8/10
video
8/10
please, leave only comments related to that torrent
or sign-in
0
jerry745104 • 14 August 2014, 17:28
torrent downloaded
Show comment
excellent action movie thank www.torrent.com
0
anonymous • 11 April 2014, 04:34 Show comment
stoopid movie
0
anonymous • 11 April 2014, 03:37 Show comment
this copy sucks ,video is a 10 audio is a 2 shity ass copy
0
lumpy271757 • 08 April 2014, 01:08
torrent downloaded
Show comment
Torrent & film both worked swimmingly. Arrrggg, A HEARTY THANKS.
0
Kontagion.1411 • 06 April 2014, 05:01
torrent downloaded
Show comment
audio: 8video: 7
Quality looks great. Looks like a good movie too. Thanks!!
0
HopenDarkness74.23K • 31 March 2014, 20:53
torrent downloaded
Show comment
thanx
0
toots2boots243 • 14 March 2014, 10:37
torrent downloaded
Show comment
Thanks 4 it all guys.
0
decat181094 • 03 March 2014, 23:29
torrent downloaded
Show comment
excent
0
gooner672026 • 01 March 2014, 17:30
torrent downloaded
Show comment
Superb. Thanks uploader
Show More

User Opinions

Stoned623445, mosthated24912183, Yellowbirdie1335, toxictoadz1243, westyboy1953974, Uncle Bob915, matyk702, hope464, moxin222, pandarian81 ... And 1186 more
aroylis880, Moonwolf96723, shiva010464, arcadiabud337, rmyers451099272, bat1939226, montycheema180, muhanad.mukashfi161, joeven15130, sunny0210106 ... And 9 more
Report a bug