[18+]Shunyo E Bukey(2005) DVD Rip EngSub Bengali Movie.avi

seeders: 1
leechers: 3
Added on Aug 14, 2012 by dead_112566 in Movies
Downloaded 10 times.

Available in versions: DVDRip
[18+]Shunyo E Bukey(2005) DVD Rip EngSub Bengali Movie.avi (Size: 701.38 MB)
  Shunyo E Buke(2005)-1CD DVD Rip[XviD-MP3].avi 701.38 MB

Description

[18+]Shunyo E Bukey(2005) DVD Rip EngSub Bengali Movie.avi

image

image
Shunyo E Buke (Empty canvas) is a 2005 Bengali film directed by Kaushik Ganguly.[1] The film deals with the psyche of men and women and their physical relationship. After making Warish Ganguly made this second feature film and this film did well in Kolkata and was appreciated in few film festivals
image
Churni Ganguly.
Kaushik Sen.
Kharaj Mukherjee.
Tota Roychoudhury.
Biswajit Chakraborty.
Rajesh Sharma.
Sudip Mitra.
Guest appearance
Rupa Ganguly.
Soma Dey.
Dipankar Dey.

image
General
Format : AVI
Format/Info : Audio Video Interleave
File size : 701 MiB
Duration : 2h 4mn
Overall bit rate : 790 Kbps
Video #0
ID : 0
Format : MPEG-4 Visual
Format profile : Advanced Simple@L5
Format settings, BVOP : 2
Format settings, QPel : No
Format settings, GMC : No warppoints
Format settings, Matrix : Default (H.263)
Codec ID : XVID
Codec ID/Hint : XviD
Duration : 2h 4mn
Bit rate : 704 Kbps
Width : 560 pixels
Height : 416 pixels
Display aspect ratio : 4:3
Frame rate : 25.000 fps
Color space : YUV
Chroma subsampling : 4:2:0
Bit depth : 8 bits
Scan type : Progressive
Bits/(Pixel*Frame) : 0.121
Stream size : 625 MiB (89%)
image

Audio #1
ID : 1
Format : MPEG Audio
Format version : Version 1
Format profile : Layer 3
Mode : Joint stereo
Mode extension : MS Stereo
Codec ID : 55
Codec ID/Hint : MP3
Duration : 2h 4mn
Bit rate mode : Constant
Bit rate : 80.0 Kbps
Channel(s) : 2 channels
Sampling rate : 32.0 KHz
Compression mode : Lossy
Stream size : 71.1 MiB (10%)
Subtitles
English (Hardcoded & Muxed)
image

Sharing Widget


Download torrent
701.38 MB
seeders:1
leechers:3
[18+]Shunyo E Bukey(2005) DVD Rip EngSub Bengali Movie.avi

Trackers

tracker name Status checked seeders leechers downloads
udp://tracker.publicbt.com:80/announce
outdated 02 Jan 2014 - - -
udp://tracker.openbittorrent.com:80/announce
outdated 02 Jan 2014 - - -
http://bigtorrent.org:2710/announce
outdated 16 Mar 2013 - - -
udp://tracker.istole.it:80/announce
outdated 16 Mar 2013 - - -
http://cpleft.com:2710/announce
outdated 16 Mar 2013 - - -
http://tracker.torrentbay.to:6969/announce
outdated 16 Mar 2013 - - -
udp://fr33domtracker.h33t.com:3310/announce
deleted 16 Mar 2013 - - -
http://www.h33t.com:3310/announce
deleted 18 Feb 2013 - - -
http://9.rarbg.com:2710/announce
private 18 Feb 2013 - - -
http://bttrack.9you.com/:8080/announce
pending 16 Mar 2013 0 0 0
µTorrent compatible trackers list

Locations

name author
KickassTorrents souravfile
Torrent hash: 7626E282A3681921F0278B98F55709098F1EAA01











All Comments

audio
9/10
video
9/10
please, leave only comments related to that torrent
or sign-in
0
anandkumar441033 • 17 April 2014, 19:55
torrent downloaded
Show comment
audio: 9video: 9
Thanks for the upload
0
SM871724 • 13 August 2013, 14:50
torrent downloaded
Show comment
audio: 8video: 8
nice one biggrin
0
SM871724 • 09 August 2013, 11:38
torrent downloaded
Show comment
thanks.......but plz seed
0
anonymous • 29 January 2013, 04:48 Show comment
seed
0
Gulkan650 • 10 September 2012, 19:09 Show comment
thanks
1
rintu.lgl276 • 09 September 2012, 13:23
torrent downloaded
Show comment
audio: 10video: 10
Very Good
0
anonymous • 24 August 2012, 13:08 Show comment
Please Upload Bengali Film ''Mon Niye''2010..Director-Swapan Saha.. Pls Pls..

User Opinions

Report a bug