1492: Conquest of Paradise 1992 DVDRip -AC3-5,1- [Eng]

seeders: 18
leechers: 5
Added on Jul 5, 2009 in Movies
Torrent verified. Downloaded 10 times.

Available in versions: 1080p720pHDRiPDVDRip
1492: Conquest of Paradise 1992 DVDRip -AC3-5,1- [Eng] (Size: 1.7 GB)
  1492-Conquest of Paradise-AC3-5,1-DVDRip[Eng]1992.avi 1.7 GB
  1492-Conquest of Paradise-AC3-5,1-DVDRip[Eng]1992.jpg 1.28 MB
  1492-Conquest of Paradise-AC3-5,1-DVDRip[Eng]1992.txt 2.61 KB
  Torrent downloaded from Demonoid.com.txt 47 bytes

Description


http://www.imdb.com/title/tt0103594/

User Rating:6.2/10 - 8,828 votes

Adventure,Biography,Drama,History

Director:Ridley Scott

Cast:Gérard Depardieu/Armand Assante/Sigourney Weaver, and others.

Plot:
Big budget account of Christopher Columbus' discovery of the Americas. Released in 1992 to celebrate the 500th anniversary of the discovery.
Shows the disastrous effects the Europeans had on the original inhabitants, and Columbus' struggle to civilize the New World...

Info:

Cover included.

General
Complete name : 1492-Conquest of Paradise-AC3-5,1-DVDRip[Eng]1992.avi
Format : AVI
Format/Info : Audio Video Interleave
File size : 1.70 GiB
Duration : 2h 29mn
Overall bit rate : 1 629 Kbps
Writing application : VirtualDubMod 1.5.4.1 (build 2178/release)
Writing library : VirtualDubMod build 2178/release

Video
Format : MPEG-4 Visual
Format profile : Streaming Video@L1
Format settings, BVOP : Yes
Format settings, QPel : No
Format settings, GMC : No warppoints
Format settings, Matrix : Default
Muxing mode : Packed bitstream
Codec ID : XVID
Codec ID/Hint : XviD
Duration : 2h 29mn
Bit rate : 1 174 Kbps
Width : 720 pixels
Height : 304 pixels
Display aspect ratio : 2.35
Frame rate : 25.000 fps
Resolution : 24 bits
Colorimetry : 4:2:0
Scan type : Progressive
Bits/(Pixel*Frame) : 0.215
Stream size : 1.22 GiB (72%)
Writing library : XviD 50

Audio
Format : AC-3
Format/Info : Audio Coding 3
Codec ID : 2000
Duration : 2h 29mn
Bit rate mode : Constant
Bit rate : 448 Kbps
Channel(s) : 6 channels
Channel positions : Front: L C R, Surround: L R, LFE
Sampling rate : 48.0 KHz
Stream size : 478 MiB (27%)
Alignment : Split accross interleaves
Interleave, duration : 80 ms (2.00 video frames)
Interleave, preload duration : 500 ms
Language : English

Enjoy...

Related Torrents

torrent name size files age seed leech

Sharing Widget


Download torrent
1.7 GB
seeders:18
leechers:5
1492: Conquest of Paradise 1992 DVDRip -AC3-5,1- [Eng]

Trackers

tracker name Status checked seeders leechers downloads
udp://tracker.openbittorrent.com:80/announce
active 22 Jul 2014 11 3 10
udp://tracker.publicbt.com:80/announce
active 22 Jul 2014 12 1 10
udp://tracker.istole.it:80/announce
active 22 Jul 2014 18 5 10
udp://fr33domtracker.h33t.com:3310/announce
deleted 28 Jan 2014 - - -
µTorrent compatible trackers list

Locations

name
Mininova
ThePirateBay
ExtraTorrent
TorrentPortal
SumoTorrent
SumoTorrent
Torrentzap
Torrent hash: a13f8e71106aeea4cd9d1d3dc0f1c02e89934c11

All Comments

audio
9/10
video
9/10
please, leave only comments related to that torrent
or sign-in
0
Deap743 • 16 March 2014, 08:55
torrent downloaded
Show comment
audio: 9video: 9
0
sunny4281421 • 10 March 2014, 16:42
torrent downloaded
Show comment
audio: 8video: 8
0
donjuan9601535 • 06 May 2013, 22:56
torrent downloaded
Show comment
audio: 9video: 9
0
irishscream51884 • 14 March 2013, 12:47
torrent downloaded
Show comment
audio: 10video: 10
great
0
NorthernWolf516 • 25 February 2013, 13:39 Show comment
audio: 10video: 10
0
Skandale946 • 03 December 2012, 13:08
torrent downloaded
Show comment
audio: 9video: 9
Thanks!!
-1
anonymous • 05 February 2012, 07:50 Show comment
"this torrent is a fake!!" it took 2 hrs to download tonight feb 4 2012 then i clicked it to play it all media players couldnt play it!
0
warin_z_von_rulz89 • 28 July 2011, 05:49
torrent downloaded
Show comment
audio: 9video: 9
uploader per Excellent thank you
0
s+r8eDg368 • 27 January 2011, 03:04
torrent downloaded
Show comment
audio: 9video: 9
0
julitanhon531 • 27 January 2011, 00:01
torrent downloaded
Show comment
audio: 10video: 10
great upload
Show More

User Opinions

aardvark911670, DocTorrent655, chikon453, AJAX001413, daxxter397, Beneath0389, lonnie1380, rput179, s+r8eDg368, solwafu50 ... And 32 more
nitrousmarine83
Report a bug