12 Dates of Christmas 2011 HDTV XviD-NoGRP

seeders: 0
leechers: 1
Added on Dec 23, 2011 in Movies
Torrent verified. Downloaded 0 times.

Summary:
No summary yet
12 Dates of Christmas 2011 HDTV XviD-NoGRP (Size: 711.27 MB)
  12.Dates.of.Christmas.2011.HDTV.XviD-NoGRP.avi 701.93 MB
  12.Dates.of.Christmas.2011.HDTV.XviD-NoGRP.nfo 2.01 KB
  READ this before playing the Movie.txt 473 bytes
  sample.avi 9.34 MB
  www.Torrenting.com.txt 473 bytes

Description

.

http://www.torrenting.com : Once & For all ;)


www . Torrenting . Com

(((((((((((((= Enjoy No RAR releases =))))))))))))))))))))


...................................NFO:....................................

.http://www.imdb.com/title/tt1846442/

General
Complete name : 12.Dates.of.Christmas.2011.HDTV.XviD-NoGRP.avi
Format : AVI
Format/Info : Audio Video Interleave
File size : 702 MiB
Duration : 1h 25mn
Overall bit rate : 1 144 Kbps

Video
ID : 0
Format : MPEG-4 Visual
Format profile : Advanced Simple@L5
Format settings, BVOP : 2
Format settings, QPel : No
Format settings, GMC : No warppoints
Format settings, Matrix : Default (H.263)
Codec ID : XVID
Codec ID/Hint : XviD
Duration : 1h 25mn
Bit rate : 1 002 Kbps
Width : 624 pixels
Height : 352 pixels
Display aspect ratio : 16:9
Frame rate : 29.970 fps
Color space : YUV
Chroma subsampling : 4:2:0
Bit depth : 8 bits
Scan type : Progressive
Compression mode : Lossy
Bits/(Pixel*Frame) : 0.152
Stream size : 615 MiB (88%)
Writing library : XviD 63

Audio
ID : 1
Format : MPEG Audio
Format version : Version 1
Format profile : Layer 3
Codec ID : 55
Codec ID/Hint : MP3
Duration : 1h 25mn
Bit rate mode : Constant
Bit rate : 128 Kbps
Channel(s) : 2 channels
Sampling rate : 48.0 KHz
Compression mode : Lossy
Stream size : 78.5 MiB (11%)
Alignment : Split accross interleaves
Interleave, duration : 24 ms (0.72 video frame)

Related Torrents

torrent name size files age seed leech

Sharing Widget


Download torrent
711.27 MB
seeders:0
leechers:1
12 Dates of Christmas 2011 HDTV XviD-NoGRP

Trackers

tracker name Status checked seeders leechers downloads
udp://tracker.publicbt.com:80/announce
outdated 23 Dec 2011 - - -
http://tracker.openbittorrent.com/announce
outdated 23 Dec 2011 - - -
udp://tracker.openbittorrent.com:80/announce
outdated 23 Dec 2011 - - -
http://exodus.desync.com:6969/announce
blocked 22 Aug 2012 - - -
http://tracker.publicbt.com/announce
deleted 11 Mar 2013 - - -
µTorrent compatible trackers list

Locations

name
ThePirateBay
Limetorrents
Torrent hash: ac3bfa1379ec90aa73aeea37333184e6c6560169

All Comments

audio
0/10
video
0/10
please, leave only comments related to that torrent
or sign-in

User Opinions

Report a bug